Math Help: The 1st Through 7th Grade Math Tutor — 2 DVD Set — 7 Hour Course



Math Help: The 1st Through 7th Grade Math Tutor 2 DVD Set 7 Hour Course
2006 | English | DVD-Rip | AVI | 640×480 | XviD 738 Kbps 29.970 fps | MP3 ~128 Kbps | Total Time: 07:00:00 | (9*~251 169.39 mb
) 2.37 Gb
Genre: eLearning | Actor Director: Jason Gibson | Studio: Tapeworm | Subtitles: No | ASIN: B000G8NVPW
Building an understanding of fundamental Math concepts is essential for a student to move on and conquer more advanced math and science. Understanding addition, subtraction, multiplication, division, fractions and percents is absolutely critical. If a student doesn’t master these topics early on, it can lead to the “Math Is Hard” syndrome.
The core philosophy of this 7 hour DVD course is that “Math Is Easy”. The way that you make math easy for a student is to start off with the basics and gradually move on to the tougher material. In this way the student builds confidence in his or her skills and confidence is the key to success in math.
The 1st – 7th Grade Math Tutor is a 7 hour, 2 DVD course that will fully help a student master all of the core topics in math at the first through seventh grade level. After mastering the concepts in this DVD series the student will be ready and able to move and tackle pre-algebra and algebra.
The author has a BS and MS in Electrical Engineering and an MS in Physics.
Other Titles Available By This Author:
– The Math Video Tutor – Fractions Thru Algebra – 10 Hour Course!- 5 Hour Course!
– The Calculus 1 2 Tutor – 8 Hour Course!
– The Ultimate Physics Tutor – 11 Hour Course! Chapter Index Disk 1
Section 1: Adding 1 2 Digit Numb
ers
Section 2: Adding 3 4 Digit Numbers
Section 3: Subtracting 1 2 Digit Numbers
Section 4: Subtracting 3 4 Digit Numbers
Section 5: Introduction To Multiplication
Section 6: Learn Your Multiplication Tables
Section 7: Multiplication Problems
Section 8: Division With No Remainder
Section 9: Division With A Remainder
Section 10: Dividing 2,3, 4 Digit Numbers With Remainder

Disk 2
Section 11: Simplifying Fractions
Section 12: Adding Subtracting Fractions
Section 13: Adding Subtracting Fractions Finding The Common DenominatSection 14: Multiplying Fractions
Section 15: Dividing Fractions
Section 16: Decimal Place Value
Section 17: Add, Subtract, Multiply Decimals
Section 18: Dividing Decimals
Section 19: Percents
Section 20: Ratio Proportion MediaInfo General
Complete name : C:\Documents and Settings\1\01. Adding 1 2 Digit Numbers.avi
Format : AVI
Format/Info : Audio Video Interleave
File size : 176 MiB
Duration : 28mn 40s
Overall bit rate : 860 Kbps
Writing application : VirtualDubMod 1.5.4.1 (build 2178/release)
Writing library : VirtualDubMod build 2178/release

Video
ID : 0
Format : MPEG-4 Visual
Format profile : Advanced Simple@L5
Format settings, BVOP : Yes
Format settings, QPel : No
Format settings, GMC : No warppoints
Format settings, Matrix : Custom
Codec ID : XVID
Codec ID/Hint : XviD
Duration : 28mn 40s
Bit rate : 738 Kbps
Width : 640 pixels
Height : 480 pixels
Display aspect ratio : 4:3
Frame rate : 29.970 fps
Color space : YUV
Chroma subsampling : 4:2:0
Bit depth : 8 bits
Scan type : Progressive
Compression mode : Lossy
Bits/(Pixel*Frame) : 0.080
Stream size : 151 MiB (86%)
Writing library : XviD 1.2.0.dev47 (UTC 2006-11-01)

Audio
ID : 1
Format : MPEG Audio
Format version : Version 1
Format profile : Layer 3
Mode : Joint stereo
Mode extension : MS Stereo
Codec ID : 55
Codec ID/Hint : MP3
Duration : 28mn 40s
Bit rate mode : Variable
Bit rate : 108 Kbps
Nominal bit rate : 128 Kbps
Channel(s) : 2 channels
Sampling rate : 48.0 KHz
Compression mode : Lossy
Stream size : 22.1 MiB (13%)
Alignment : Aligned on interleaves



2: Prev 1 [2] Next

How to download:


Free register to download UseNet downloader and install, then search book title and start downloading. You can DOWNLOAD 300GB for free! Register and Download NOW!

[Fast download] Math Help: The 1st Through 7th Grade Math Tutor — 2 DVD Set — 7 Hour Course

Other mirror download link

Category: MathematicsScience

Tags:

RSSComments (6)

Trackback URL

Leave a Reply

Copyright Disclaimer: This site does not store any files on its server. We only index and link to content provided by other sites. Please contact the content providers to delete copyright contents if any and email us, we'll remove relevant links or contents immediately. our email is here.