Curing with Cayenne



Curing with CayenneDVDRip | English | AVI | 640×480 | XviD 1501 kbps | 29.97 fps
MP3 128 kbps | 44.1 KHz | 2 channels | Runtime: 100 min | 1.17 GbGenre: Video Training
IF YOU ONLY MASTER ONE HERB IN YOUR LIFE MASTER CAYENNE PEPPERS.Cayenne pepper has gained its prominence do to its long cultivation and early introduction to Europeans. Cayenne pepper plants were being grown by NATIVE AMERICAN INDIANS, in South and Central America for thousands of years.Cayenne pepper takes its name from its supposed centre of origin – the Cayenne region of French Guiana, Cayenne deriving from a Tupi Indian name. It is now grown largely in India, East Africa, Mexico and the United States, in fact most tropical and sub-tropical regions.Chiles originated in South America, where they have been under cultivation since prehistoric times.
The seed’s long viability facilitated the rapid spread of the plant throughout the tropics and sub-tropics by the Spanish and Portuguese, the spice becoming as popular there as vine pepper. Chiles were long known as ‘Indian’ pepper – meaning ‘of the New World’ rather than ‘of India’. Despite its specific name, and the supposed use of special chiles for it, there is little to distinguish cayenne from ordinary pure chilli powder, except that commercial ‘chilli powder’ usually contains other spices such as garlic or cumin, and is rougher in texture.
Medical Herbalist Dr. Richard Schulze will teach you how to do more curing with cayenne and its herbal partners than you could with hundreds of regular herbs.
You may know cayenne, but you dont know what DOSES to use, what FORM (powder, liquid, tea or oil) of the herb is best for using it to cure you of life-threatening diseases.
Learn how to use cayenne alone and with its herbal partners to blast BLOOD AND NUTRIENTS into sick organs. Watch this video tape and learn how to save lives with Cayenne, after all other healing methods have failed.

When life is on the line, and time is against you, learn how to use cayenne pepper, the most powerful blood-moving herb on the planet. Sam Biser (author of The Laymans Course on Curing Last-Stage Diseases)
Heat is the healing power of the sun trapped inside the fruit of cayenne. Cayenne is not an irritant. It is considered a counter-irritant. By bringing blood, it can cure tissues which are inflamed and sensitive. Using Cayenne Pepper As A Natural Remedy!
While most people just think that Cayenne Pepper is used to spice up some food, you might not know that this spicy little treat is actually a fantastic home remedy for many different things.
The great thing everyone usually has Cayenne Pepper in their home, so it is very easy to keep around. Cayenne Pepper is something that can be used as a natural remedy for cuts.
Whenever you get a cut, if you sprinkle some Cayenne Pepper on it, you will not only stop the bleeding immediately, but it will actually ease the pain as well.
NATIVE AMERICAN INDIANS knew that something so spicy could really turn out to be something that helps your cuts AND COUNTLESS HEALINGS!
Cayenne does sting, but after the sting comes the cure.
video and audio info C:\Users\Administrator\Desktop\CURING WITH CAYENNE- 1.avi
General
Complete name : C:\Users\Administrator\Desktop\CURING WITH CAYENNE- 1.avi
Format : AVI
Format/Info : Audio Video Interleave
File size : 436 MiB
Duration : 37mn 8s
Overall bit rate : 1 642 Kbps
Video
Format : MPEG-4 Visual
Format profile : Simple@L3
Format settings, BVOP : Yes
Format settings, QPel : No
Format settings, GMC : No warppoints
Format settings, Matrix : Default
Codec ID : XVID
Codec ID/Hint : XviD
Duration : 37mn 8s
Bit rate : 1 501 Kbps
Width : 640 pixels
Height : 480 pixels
Display aspect ratio : 4/3
Frame rate : 29.970 fps
Resolution : 24 bits
Scan type : Progressive
Bits/(Pixel*Frame) : 0.163
Stream size : 399 MiB (91%)
Audio
Format : MPEG Audio
Format version : Version 1
Format profile : Layer 3
Codec ID : 55
Codec ID/Hint : MP3
Duration : 37mn 8s
Bit rate mode : Constant
Bit rate : 128 Kbps
Channel(s) : 2 channels
Sampling rate : 44.1 KHz
Resolution : 16 bits
Stream size : 33.9 MiB (8%)
Alignment : Aligned on interleaves
Interleave, duration : 26 ms (0.78 video frame)
Writing library : LAME3.97
Screenshot







Filesonic
http://ebooksfreedownload.org/wp-content/plugins/url-cloak-encrypt/url.php?id=aHR0cDovL3d3dy5maWxlc29uaWMuY29tL2ZpbGUvOTMxODQ3NDEvQ1VSSU5HX1dJVEhfQ0FZRU5ORS5wYXJ0MS5yYXI=" target="_blank



2: Prev 1 [2] Next

How to download:


Free register to download UseNet downloader and install, then search book title and start downloading. You can DOWNLOAD 300GB for free! Register and Download NOW!

[Fast download] Curing with Cayenne

Other mirror download link

Category: Cooking and Diets

Tags:

RSSComments (1)

Trackback URL

Leave a Reply

Copyright Disclaimer: This site does not store any files on its server. We only index and link to content provided by other sites. Please contact the content providers to delete copyright contents if any and email us, we'll remove relevant links or contents immediately. our email is here.